Skip to main content

Patterson Hood Live at Franklin Theatre on 2013-06-08




Patterson Hood & The Mystic Rumblers
2013-06-08
Franklin Theatre
Franklin, TN.


***16bit Source***


Source: SBD + Schoeps MK4V > KC5 > CMC6 > Sound Devices 744T (24bit/48kHz)
Location: FOB / DFC / 8ft
Transfer: 744T > HDD > Wavelab 6.1 (DSP/Crystal Re-Sampler/MBit+ Dither/Fades) > CDWave > TLH > FLAC (8)
Taped, Transferred & Seeded by Martin Medley


One Set:

01. Intro
02. Disappear
03. I Understand Now
04. Starting All Over Again
05. 12:01
06. Leaving Time
07. Daddy Needs A Drink
08. Better Than The Truth
09. Uncle Disney
10. Betty Ford
11. Take Time To Know Her
12. After The Damage
13. Better Off Without
14. Polyanna
15. Heat Lightning Rumbles In The Distance
16. Come Back Little Star
17. Fifteen Days
18. Respect Yourself
19. Take A Letter, Maria
20. Back Of A Bible



Patterson Hood - guitar, vocals
David Hood - bass
Jay Gonzalez - keys
Brad Morgan - drums


Collection PattersonHood
Band/Artist Patterson Hood
Venue Franklin Theatre
Location Franklin, TN.

Source SBD + Schoeps MK4V > KC5 > CMC6 > Sound Devices 744T (24bit/48kHz)
Lineage 744T > Wavelab 6.1 (DSP/Crystal Re-Sampler/MBit+ Dither/Fades) > CDWave > TLH > FLAC (8)
Taped by Martin Medley
Transferred by Martin Medley

Notes

shntool info:

length expanded size cdr WAVE problems fmt ratio filename
3:01.42 32027228 B --- -- ---xx flac 0.4526 pattersonhood2013-06-08t01.flac
3:48.14 40252172 B --- -- ---xx flac 0.5344 pattersonhood2013-06-08t02.flac
4:28.59 47414012 B --- -- ---xx flac 0.5955 pattersonhood2013-06-08t03.flac
10:30.53 111256700 B --- -- ---xx flac 0.4578 pattersonhood2013-06-08t04.flac
5:01.65 53249324 B --- -- ---xx flac 0.4393 pattersonhood2013-06-08t05.flac
3:31.18 37262780 B --- -- ---xx flac 0.5524 pattersonhood2013-06-08t06.flac
7:01.50 74382044 B --- -- ---xx flac 0.4554 pattersonhood2013-06-08t07.flac
5:05.68 53961980 B --- -- ---xx flac 0.4700 pattersonhood2013-06-08t08.flac
3:23.46 35917436 B --- -- ---xx flac 0.4691 pattersonhood2013-06-08t09.flac
5:19.01 56273996 B --- -- ---xx flac 0.5168 pattersonhood2013-06-08t10.flac
6:46.02 71623148 B --- -- ---xx flac 0.4801 pattersonhood2013-06-08t11.flac
4:35.03 48517100 B --- -- ---xx flac 0.5162 pattersonhood2013-06-08t12.flac
2:16.55 24119804 B --- -- ---xx flac 0.6544 pattersonhood2013-06-08t13.flac
8:32.06 90330956 B --- -- ---xx flac 0.5463 pattersonhood2013-06-08t14.flac
5:13.35 55295564 B --- -- ---xx flac 0.4874 pattersonhood2013-06-08t15.flac
4:39.72 49384988 B --- -- ---xx flac 0.5374 pattersonhood2013-06-08t16.flac
7:24.32 78396908 B --- -- ---xx flac 0.5285 pattersonhood2013-06-08t17.flac
7:29.21 79253036 B --- -- ---xx flac 0.4854 pattersonhood2013-06-08t18.flac
8:51.70 93833084 B --- -- ---xx flac 0.5120 pattersonhood2013-06-08t19.flac
6:45.04 71451452 B --- -- ---xx flac 0.5715 pattersonhood2013-06-08t20.flac
113:46.41 1204203712 B 0.5075 (20 files)

Reviews

Reviewer: Dfries81 - - June 24, 2013
Subject: Respect Yourself
Hell yes!

Thanks, Martin.
DOWNLOAD OPTIONS
Uploaded by
mmedley
on 6/9/2013
Views
744
Reviews
1
PEOPLE ALSO FOUND
Patterson Hood
by Patterson Hood
1,242
0
0
Source: Schoeps MK4V (ORTF) > KC5 > CMC6 > Sound Devices 722 (24bit/48kHz)
Patterson Hood
by Patterson Hood
383
0
0
Source: Schoeps MK4V (ORTF) > KC5 > CMC6 > Sound Devices 722 (24bit/48kHz)
Patterson Hood
by Patterson Hood
126
0
0
Source: Schoeps MK4V > KC5 > CMC6 > Sound Devices 744T (24bit/48kHz)
Patterson Hood
by Patterson Hood
744
0
1
( 1 reviews )
Source: SBD + Schoeps MK4V > KC5 > CMC6 > Sound Devices 744T (24bit/48kHz)
Patterson Hood
by Patterson Hood
1,140
1
1
( 1 reviews )
Source: SBD + Schoeps MK4V > KC5 > CMC6 > Sound Devices 744T (24bit/48kHz)
Futurebirds
by Futurebirds
510
0
0
Source: SBD + Schoeps MK4V > KC5 > CMC6 > Sound Devices 744T
Futurebirds
by Futurebirds
113
0
0
Source: SBD + Schoeps MK4V > KC5 > CMC6 > Sound Devices 744T (24bit/48kHz)
Futurebirds
by Futurebirds
412
0
0
Source: Schoeps MK4V > KC5 > CMC6 > Sound Devices 722 (24bit/48kHz)
Yo Mama's Big Fat Booty Band
by Yo Mama's Big Fat Booty Band
304
0
0
Source: SBD + Schoeps MK4V > KC5 > CMC6 > Sound Devices 744T (24bit/48kHz)
Futurebirds
by Futurebirds
447
0
0
Source: Schoeps CCM4Vs (DIN) > Lunatec V2 > Benchmark AD2K > Sound Devices 722 (24bit/48kHz)